Videó konvertálás, kódolás


#1

Latom vannak akik ertenek xvid4psp-hez, szoval feltennek egy kerdest. :slight_smile:

Mobilon szoktam nezni sorozatokat (simpson, big bang theory stb), es anno, mikor a telefont vettem rakerestem, hogyan es mivel lehet videot konvertalni. Super nevu programot irtak, megadtak a beallitasokat is, mukodik is minden evek ota, leszamitva hogy nagyon ritkan valami gubanc van es ujra kell konvertalni egy videot. Ebbol az okbol, meg foleg azert mert eleg nekem egy konvertalo a gepre, szeretnem xvid4psp-vel megoldani. Probaltam mar, de valahogy sose jott ossze, mert a telefon nem tudott megbirkozni a vegeredmennyel. Szoval a spoilerben lenne a program es hogy milyen beallitasokat hasznalok. Telefon: Samsung Monte. Barmi egyeb info kell, megosztom azt is.
[spoiler]http://i.imgur.com/pCp903H.png[/spoiler]


#2
  1. A Super XviD/DivX-et vagy H264-et (x264, AVC feliratok még utalhatnak rá) készít? Mindegyik az MPEG4 kategóriába tartozik, bár XviD ritkán van mp4-ben, de sose lehet tudni :smiley:
  2. A telefon 23.976 fps-es videót lejátszik? A 15 fps elég kevés ilyenre.

#3
  1. Fogalmam sincs. Ilyen valasztasi lehetosegek vannak. Regebben Divx-et hasznaltam, aztan atalltam a mostanira.
  2. Sajnos nem, ezert van 15-re allitva. Egyebkent a kis kijelzon nem veszed eszre a kulonbseget, monitoron viszont nagyon is latszik.

Ajanlhatsz tobbfele megoldast, aztan csinalok nehany konvertalast, majd kiprobalom melyik jo, melyik nem.

Illetve itt van egy MediaInfo az egyik videorol, hatha megtalalod amit kell (ha jol latom h263)
[spoiler]General
Complete name : I:\Videos\A.Simpson.csalad.7x04.DVDrip.XviD.CUSTOM.HunDub-RH.avi.MP4
Format : MPEG-4
Format profile : Base Media
Codec ID : isom
File size : 135 MiB
Duration : 21mn 51s
Overall bit rate mode : Variable
Overall bit rate : 861 Kbps
Movie name : A.Simpson.csalad.7x04.DVDrip.XviD.CUSTOM.HunDub-RH
Performer : created.with.SUPER©.v2014.bld.61+Recorder
ContentType : Short Film
Encoded date : UTC 2014-07-14 00:00:00
Tagged date : UTC 2014-07-14 00:00:00
Writing application : eRightSoft©
Comment : eRightSoft

Video
ID : 1
Format : MPEG-4 Visual
Format profile : Simple@L1
Format settings, BVOP : No
Format settings, QPel : No
Format settings, GMC : No warppoints
Format settings, Matrix : Default (H.263)
Codec ID : 20
Duration : 21mn 51s
Bit rate mode : Variable
Bit rate : 730 Kbps
Maximum bit rate : 1 248 Kbps
Width : 320 pixels
Height : 240 pixels
Display aspect ratio : 16:9
Frame rate mode : Constant
Frame rate : 15.000 fps
Color space : YUV
Chroma subsampling : 4:2:0
Bit depth : 8 bits
Scan type : Progressive
Compression mode : Lossy
Bits/(Pixel*Frame) : 0.634
Stream size : 114 MiB (85%)
Writing library : eRightSoft©
Encoded date : UTC 2014-07-14 00:00:00
Tagged date : UTC 2014-07-14 00:00:00

Audio
ID : 2
Format : AAC
Format/Info : Advanced Audio Codec
Format profile : LC
Codec ID : 40
Duration : 21mn 50s
Bit rate mode : Variable
Bit rate : 128 Kbps
Maximum bit rate : 1 248 Kbps
Channel(s) : 2 channels
Channel positions : Front: L R
Sampling rate : 44.1 KHz
Compression mode : Lossy
Stream size : 20.0 MiB (15%)
Encoded date : UTC 2014-07-14 00:00:00
Tagged date : UTC 2014-07-14 00:00:00[/spoiler]


#4

Ha jól látom, akkor ez lesz: Link
XviD4PSP-be úgytom csak XviD és X264 van beépítve, úgyhogy valszeg nem lesz jó neked. De örülnék, ha valaki meg tudna erősíteni/cáfolni, mert nem vagyok teljesen biztos.


#5

Rakerestem es elvileg lejatsza a H.264-et.


#6

Első próbálkozásra ezt javasolnám:

  1. Betöltöd a videót. Ha kell, a feliratot is.
  2. Oldal menüben:
  • Formátum: MP4
  • Videó: Fogaskerékre katt. Megjelenő ablakban fent a Codec-nél válaszd ki az x264-et. Lejjebb a füleknél katt a CLI-re. Amit ott találsz, az nem kell, írd át az alábbira. [spoiler]–crf 21.0 --preset medium --level 3.1 --ref 5 --merange 24 --bframes 3 --direct auto --b-adapt 2 --trellis 2 --psy-rd 0.80:0.00 --threads 8 --subme 8 --me umh --extra:[/spoiler] Ha megvan, ne felejts el Apply-t nyomni, akkor írja át, utána leOKézhatod.
  • Audió: AAC-LC ABR 128k
  1. Videó fül --> Resolution/Aspect menü. Output resolutiont állítsd át 368x208-ra (16:9-es forrás esetén), vagy 320x240 (4:3 esetén). --> OK //Megjegyzés: 4:3 esetben a Super beállításából indultam ki. A 368x208 pedig csak tipp, a telefon képernyője nagyobb felbontásra, de ennyi csökkentést nem veszel észre. Remélem lejátszik natív 16:9-es képarányú vidit (ha nem, akkor fekete kitöltéssel 4:3-assá kell tenni) :smiley:
  2. Ha a 15 FPS kell, akkor azt a Videó fül --> Interlace/Framerate menü alatt éred el. Output framerate-t átteszed 15-re --> OK

#7

Koszi, kiprobaltam. Sajnos H.264-es videot nem szereti. Hang van, kep nincs. A 368x208-as felbontasra pedig azt mondta, hogy nem tamogatott, szoval le se jatszotta. Kerestem egy 16:9-es videot es kimasoltam a MediaInfot:
[spoiler]General
Complete name : I:\Videos\Anger.Management.S02E58.HDTV.x264-EXCELLENCE.mkv.MP4
Format : MPEG-4
Format profile : Base Media
Codec ID : isom
File size : 120 MiB
Duration : 21mn 27s
Overall bit rate mode : Variable
Overall bit rate : 784 Kbps
Movie name : Anger.Management.S02E58.HDTV.x264-EXCELLENCE
Performer : created.with.SUPER©.v2014.bld.61+Recorder
ContentType : Short Film
Encoded date : UTC 2014-07-16 00:00:00
Tagged date : UTC 2014-07-16 00:00:00
Writing application : eRightSoft©
Comment : eRightSoft

Video
ID : 1
Format : MPEG-4 Visual
Format profile : Simple@L1
Format settings, BVOP : No
Format settings, QPel : No
Format settings, GMC : No warppoints
Format settings, Matrix : Default (H.263)
Codec ID : 20
Duration : 21mn 27s
Bit rate mode : Variable
Bit rate : 652 Kbps
Maximum bit rate : 1 248 Kbps
Width : 320 pixels
Height : 240 pixels
Display aspect ratio : 16:9
Frame rate mode : Constant
Frame rate : 15.000 fps
Color space : YUV
Chroma subsampling : 4:2:0
Bit depth : 8 bits
Scan type : Progressive
Compression mode : Lossy
Bits/(Pixel*Frame) : 0.566
Stream size : 100 MiB (83%)
Writing library : eRightSoft©
Encoded date : UTC 2014-07-16 00:00:00
Tagged date : UTC 2014-07-16 00:00:00

Audio
ID : 2
Format : AAC
Format/Info : Advanced Audio Codec
Format profile : LC
Codec ID : 40
Duration : 21mn 27s
Duration_LastFrame : -19ms
Bit rate mode : Variable
Bit rate : 128 Kbps
Maximum bit rate : 1 248 Kbps
Channel(s) : 2 channels
Channel positions : Front: L R
Sampling rate : 44.1 KHz
Compression mode : Lossy
Stream size : 19.7 MiB (16%)
Encoded date : UTC 2014-07-16 00:00:00
Tagged date : UTC 2014-07-16 00:00:00[/spoiler]


#8

Írtam, hogy mást XviD4PSP-vel csak XviD-et és H264-et tudsz konvertálni.

  1. lépés videó CLI beállításait egy ilyenen még ki lehet próbálni:
    [spoiler]–profile Main --bitrate 1024 --level 3.1 --extra:[/spoiler]

  2. lépsében pedig a menüben beállítod a 320x240-et. Az átálláskor elvileg Output aspect-et átírja 4:3-ra. Neked viszont még be kell állítanod Black-re az Aspect adjusting method-ot. Akkor feketeséggel fogja kitölteni neked az alsó és a felső sávot, nem lesz elnyújtva a kép.


#9

Koszi, sajnos igy sincs kep, csak feketeseg. Nem akarok okoskodni, de nekem van MPEG4 is
[spoiler]http://i.imgur.com/zWLO6oG.png[/spoiler]


#10

Valóban. Elnézést kérek, ez nekem is új :smiley: Valójában MeGUI-t használok már, feljebb a dolgokat emlékezetből és netes képek alapján írtam.
Viszont ahogy látom, ISO base nincs. Mindenesetre a Main fülön 1000 körüli Bitrate-t írj be. Aztán a FOURCC elemeit kell végigpróbálnod.

Tipp: A tesztekhez elég neked egy kis részlet a videóból, egyszerűbb dolgod lesz, ha megvágod. A bal alsó rész a vágó. Most hirtelenen mondok egy számot: 400 képkocka bőven elég neked. Ha az első mezőbe 0-t, a másodikba 399-et írsz, rányomsz a Set gombokra, majd utána az Apply-ra, akkor az első 400 képkockát fogja neked konvertálni.


#11

Koszi a segitseget! Az FFDS-szel valami hibat irt ki a program, a tobbit viszont sikeresen konvertalta és a telefon mindegyiket lejatszotta rendesen. Egy problemam van meg, hogy ~20 megaval nagyobb fajlokat kapok, mint Superrel. Gondolom ezen mar nemigazan lehet segiteni. Egyebkent ugyanazt a bitrate-et hasznaltam, mint Supernel, 1248-at. Sajnos 16:9-es keparanyu videoknal tovabbra sincs kep, szoval szerintem maradok Supernel. Koszi megegyszer a segitseget!


#12

Azért írtam 1000 körüli bitrátát, mert gondoltam, hogy nagyobb lesz. Super elvileg variálja, a maximumnak írja az 1248-at, de nem mindenhol annyi. Mi viszont konstanst használtunk. 1000-rel egyébként már lehet nézni. Annó filmsorozatokat 900 és 1000 között állították be még az xvidnél (ma már x264 crf-be kódolják azokat is). A 16:9-es feketeséggel kiegészítve 4:3-ra nem tudom miért nem működik, elvileg kellene neki.

Szívesen :slight_smile: